Yamaha RX-King Indonesia (YRKI) Forum
Selamat Datang di Forum Yamaha RX-King Indonesia (YRKI), silahkan Login atau melakukan Pendaftaran terlebih dahulu untuk dapat berkontribusi. Thanks.

Regard,
Assad KingQ
Yamaha King's Club Lampung (YKCL)
Div. Website | Forum Admin
Yamaha RX-King Indonesia (YRKI)

The Doctor, The Tornado & The Kentucky Kid (2006)

Topik sebelumnya Topik selanjutnya Go down

The Doctor, The Tornado & The Kentucky Kid (2006)

Post by Assad KingQ on Thu 26 Dec 2013, 9:50 am

[You must be registered and logged in to see this image.]
[You must be registered and logged in to see this image.]

Description

Media Info
General
Unique ID: 175060085069876941689935311397689181786 (0x83B35892D215F1759AC83D3847E7465A)
Complete name: E:\AssaDigital\Movies & Videos\Movies\The Doctor, The Tornado & The Kentucky Kid (2006)\The Doctor, The Tornado & The Kentucky Kid (2006).mkv
Format: Matroska
Format version: Version 2
File size: 2.18 GiB
Duration: 1h 43mn
Overall bit rate: 3 013 Kbps
Encoded date: UTC 2011-03-07 09:23:37
Writing application: mkvmerge v4.3.0 ('Escape from the Island') built on Sep  5 2010 10:30:51
Writing library: libebml v1.0.0 + libmatroska v1.0.0

Video
ID: 1
Format: AVC
Format/Info: Advanced Video Codec
Format profile: High@L3.1
Format settings, CABAC: Yes
Format settings, ReFrames: 4 frames
Codec ID: V_MPEG4/ISO/AVC
Duration: 1h 43mn
Bit rate: 2 565 Kbps
Width: 1 280 pixels
Height: 720 pixels
Display aspect ratio: 16:9
Frame rate mode: Constant
Frame rate: 25.000 fps
Color space: YUV
Chroma subsampling: 4:2:0
Bit depth: 8 bits
Scan type: Progressive
Bits/(Pixel*Frame): 0.111
Stream size: 1.82 GiB (83%)
Writing library: x264 core 105 r1724 b02df7b
Encoding settings: cabac=1 / ref=3 / deblock=1:-1:-1 / analyse=0x3:0x113 / me=hex / subme=7 / psy=1 / psy_rd=1.00:0.15 / mixed_ref=1 / me_range=16 / chroma_me=1 / trellis=1 / 8x8dct=1 / cqm=0 / deadzone=21,11 / fast_pskip=1 / chroma_qp_offset=-3 / threads=6 / sliced_threads=0 / nr=0 / decimate=1 / interlaced=0 / constrained_intra=0 / bframes=4 / b_pyramid=2 / b_adapt=1 / b_bias=0 / direct=1 / weightb=1 / open_gop=0 / weightp=2 / keyint=250 / keyint_min=25 / scenecut=40 / intra_refresh=0 / rc_lookahead=40 / rc=2pass / mbtree=1 / bitrate=2565 / ratetol=1.0 / qcomp=0.60 / qpmin=10 / qpmax=51 / qpstep=4 / cplxblur=20.0 / qblur=0.5 / ip_ratio=1.40 / aq=1:1.00
Language: English
Default: Yes
Forced: No

Audio
ID: 2
Format: AC-3
Format/Info: Audio Coding 3
Mode extension: CM (complete main)
Format settings, Endianness: Big
Codec ID: A_AC3
Duration: 1h 43mn
Bit rate mode: Constant
Bit rate: 448 Kbps
Channel count: 2 channels
Channel positions: Front: L R
Sampling rate: 48.0 KHz
Bit depth: 16 bits
Compression mode: Lossy
Delay relative to video: 64ms
Stream size: 333 MiB (15%)
Title: English
Language: English
Default: Yes
Forced: No

DOWNLOAD
[You must be registered and logged in to see this image.]

Jangan Lupa Install Aplikasi Torrentnya (BitTorrent Or µTorrent) Buat Yang Blom Ada Di Komputernya Biar Bisa DiDownload!!!

_________________________________________________
[You must be registered and logged in to see this image.]
[You must be registered and logged in to see this image.]

Assad KingQ
 
 

Posts : 237
Join date : 03.03.10
Location : Lampung Geh...!!!

http://AssadKingQ.blogspot.com/

Kembali Ke Atas Go down

Topik sebelumnya Topik selanjutnya Kembali Ke Atas

- Similar topics

 
Permissions in this forum:
Anda tidak dapat menjawab topik