Yamaha RX-King Indonesia (YRKI) Forum
Selamat Datang di Forum Yamaha RX-King Indonesia (YRKI), silahkan Login atau melakukan Pendaftaran terlebih dahulu untuk dapat berkontribusi. Thanks.

Regard,
Assad KingQ
Yamaha King's Club Lampung (YKCL)
Div. Website | Forum Admin
Yamaha RX-King Indonesia (YRKI)

Faster (2003)

Topik sebelumnya Topik selanjutnya Go down

Faster (2003)

Post by Assad KingQ on Thu 26 Dec 2013, 9:45 am

[You must be registered and logged in to see this image.]
[You must be registered and logged in to see this image.]

Description

Media Info
General
Complete name: E:\AssaDigital\Movies & Videos\Movies\Faster (2003)\Faster (2003).avi
Format: AVI
Format/Info: Audio Video Interleave
File size: 1.54 GiB
Duration: 1h 42mn
Overall bit rate: 2 140 Kbps

Video
ID: 0
Format: MPEG-4 Visual
Format profile: Simple@L1
Format settings, BVOP: No
Format settings, QPel: No
Format settings, GMC: No warppoints
Format settings, Matrix: Default (H.263)
Codec ID: DIVX
Codec ID/Info: Project Mayo
Codec ID/Hint: DivX 4
Duration: 1h 42mn
Source duration: 1h 42mn
Bit rate: 1 998 Kbps
Width: 720 pixels
Height: 480 pixels
Display aspect ratio: 3:2
Frame rate: 29.970 fps
Standard: NTSC
Color space: YUV
Chroma subsampling: 4:2:0
Bit depth: 8 bits
Scan type: Progressive
Compression mode: Lossy
Bits/(Pixel*Frame): 0.193
Stream size: 1.43 GiB (93%)
Writing library: avc2.0.11.1110

Audio
ID: 1
Format: MPEG Audio
Format version: Version 1
Format profile: Layer 3
Mode: Joint stereo
Mode extension: MS Stereo
Codec ID: 55
Codec ID/Hint: MP3
Duration: 1h 42mn
Bit rate mode: Constant
Bit rate: 128 Kbps
Channel count: 2 channels
Sampling rate: 44.1 KHz
Compression mode: Lossy
Stream size: 94.0 MiB (6%)
Alignment: Aligned on interleaves
Interleave, duration: 26 ms (0.78 video frame)

DOWNLOAD
[You must be registered and logged in to see this image.]

Jangan Lupa Install Aplikasi Torrentnya (BitTorrent Or µTorrent) Buat Yang Blom Ada Di Komputernya Biar Bisa DiDownload!!!

_________________________________________________
[You must be registered and logged in to see this image.]
[You must be registered and logged in to see this image.]

Assad KingQ
 
 

Posts : 237
Join date : 03.03.10
Location : Lampung Geh...!!!

http://AssadKingQ.blogspot.com/

Kembali Ke Atas Go down

Topik sebelumnya Topik selanjutnya Kembali Ke Atas


 
Permissions in this forum:
Anda tidak dapat menjawab topik