Yamaha RX-King Indonesia (YRKI) Forum
Selamat Datang di Forum Yamaha RX-King Indonesia (YRKI), silahkan Login atau melakukan Pendaftaran terlebih dahulu untuk dapat berkontribusi. Thanks.

Regard,
Assad KingQ
Yamaha King's Club Lampung (YKCL)
Div. Website | Forum Admin
Yamaha RX-King Indonesia (YRKI)

Fastest (2011)

Topik sebelumnya Topik selanjutnya Go down

Fastest (2011)

Post by Assad KingQ on Thu 26 Dec 2013, 9:55 am

[You must be registered and logged in to see this image.]
[You must be registered and logged in to see this image.]

Description

Media Info
General
Complete name: E:\AssaDigital\Movies & Videos\Movies\Fastest (2011)\Fastest (2011).mp4
Format: MPEG-4
Format profile: Base Media
Codec ID: isom
File size: 701 MiB
Duration: 1h 50mn
Overall bit rate mode: Variable
Overall bit rate: 884 Kbps
Encoded date: UTC 2012-06-17 11:27:47
Tagged date: UTC 2012-06-17 11:27:47

Video
ID: 1
Format: AVC
Format/Info: Advanced Video Codec
Format profile: High@L4.0
Format settings, CABAC: Yes
Format settings, ReFrames: 6 frames
Codec ID: avc1
Codec ID/Info: Advanced Video Coding
Duration: 1h 50mn
Bit rate: 786 Kbps
Maximum bit rate: 4 142 Kbps
Width: 1 280 pixels
Height: 720 pixels
Display aspect ratio: 16:9
Frame rate mode: Constant
Frame rate: 23.976 fps
Color space: YUV
Chroma subsampling: 4:2:0
Bit depth: 8 bits
Scan type: Progressive
Bits/(Pixel*Frame): 0.036
Stream size: 624 MiB (89%)
Writing library: x264 core 120 r2164 da19765
Encoding settings: cabac=1 / ref=6 / deblock=1:-2:-1 / analyse=0x3:0x133 / me=umh / subme=9 / psy=1 / psy_rd=1.00:0.15 / mixed_ref=1 / me_range=16 / chroma_me=1 / trellis=2 / 8x8dct=1 / cqm=0 / deadzone=21,11 / fast_pskip=1 / chroma_qp_offset=-3 / threads=12 / sliced_threads=0 / nr=0 / decimate=1 / interlaced=0 / bluray_compat=0 / constrained_intra=0 / bframes=3 / b_pyramid=2 / b_adapt=2 / b_bias=0 / direct=3 / weightb=1 / open_gop=0 / weightp=2 / keyint=240 / keyint_min=23 / scenecut=40 / intra_refresh=0 / rc_lookahead=60 / rc=2pass / mbtree=1 / bitrate=786 / ratetol=1.0 / qcomp=0.60 / qpmin=10 / qpmax=51 / qpstep=4 / cplxblur=20.0 / qblur=0.5 / ip_ratio=1.40 / aq=1:1.00
Encoded date: UTC 2012-06-17 11:27:48
Tagged date: UTC 2012-06-17 11:31:31

Audio
ID: 2
Format: AAC
Format/Info: Advanced Audio Codec
Format profile: LC
Codec ID: 40
Duration: 1h 50mn
Bit rate mode: Variable
Bit rate: 94.0 Kbps
Maximum bit rate: 115 Kbps
Channel count: 2 channels
Channel positions: Front: L R
Sampling rate: 44.1 KHz
Compression mode: Lossy
Stream size: 74.6 MiB (11%)
Encoded date: UTC 2012-06-17 11:31:28
Tagged date: UTC 2012-06-17 11:31:31

DOWNLOAD
[You must be registered and logged in to see this image.]

Jangan Lupa Install Aplikasi Torrentnya (BitTorrent Or µTorrent) Buat Yang Blom Ada Di Komputernya Biar Bisa DiDownload!!!

_________________________________________________
[You must be registered and logged in to see this image.]
[You must be registered and logged in to see this image.]

Assad KingQ
 
 

Posts : 237
Join date : 03.03.10
Location : Lampung Geh...!!!

http://AssadKingQ.blogspot.com/

Kembali Ke Atas Go down

Re: Fastest (2011)

Post by adesopian24 on Fri 27 Dec 2013, 11:19 am

izin download om congra 

adesopian24
 
 

Posts : 80
Join date : 13.03.10

Kembali Ke Atas Go down

Topik sebelumnya Topik selanjutnya Kembali Ke Atas

- Similar topics

 
Permissions in this forum:
Anda tidak dapat menjawab topik